osu file format v14

[General]
AudioFilename: audio.mp3
AudioLeadIn: 0
PreviewTime: 41482
Countdown: 0
SampleSet: Drum
StackLeniency: 0.3
Mode: 0
LetterboxInBreaks: 0
WidescreenStoryboard: 1

[Editor]
Bookmarks: 5512,17502,29492,41482,53473,65463,77453,87757,87945,104431,107429,119419,131409,143399,150893,153516
DistanceSpacing: 0.9
BeatDivisor: 4
GridSize: 4
TimelineZoom: 2.4

[Metadata]
Title:LAB=01
TitleUnicode:LAB=01
Artist:P-MODEL
ArtistUnicode:P-MODEL
Creator:Starrodkirby86
Version:Stealthman
Source:
Tags:susumu hirasawa rabu zero one kaku
BeatmapID:3169255
BeatmapSetID:1550895

[Difficulty]
HPDrainRate:5
CircleSize:5
OverallDifficulty:9
ApproachRate:8
SliderMultiplier:3.2
SliderTickRate:1

[Events]
//Background and Video events
0,0,"bg-01.png",0,0
//Break Periods
//Storyboard Layer 0 (Background)
//Storyboard Layer 1 (Fail)
//Storyboard Layer 2 (Pass)
//Storyboard Layer 3 (Foreground)
//Storyboard Sound Samples

[TimingPoints]
5498,374.695559857616,4,3,0,45,1,0
15989,-100,4,3,0,40,0,0
16176,-100,4,3,0,50,0,0
16364,-100,4,3,0,60,0,0
16551,-100,4,3,0,70,0,0
16738,-100,4,3,0,50,0,0
17488,-100,4,3,0,45,0,0
29478,-100,4,3,0,45,0,1
41468,-100,4,3,0,45,0,0
51960,-100,4,3,0,40,0,0
52147,-100,4,3,0,50,0,0
52334,-100,4,3,0,60,0,0
52522,-100,4,3,0,70,0,0
52709,-100,4,3,0,50,0,0
53459,-100,4,3,0,45,0,0
65449,-100,4,3,0,45,0,1
77439,-100,4,3,0,45,0,0
84933,-100,4,1,0,45,0,0
87743,-133.333333333333,4,3,0,30,0,0
89429,-100,4,3,0,45,0,0
90928,-133.333333333333,4,3,0,30,0,0
92427,-100,4,3,0,45,0,0
93926,-133.333333333333,4,3,0,30,0,0
95424,-100,4,3,0,45,0,0
96923,-133.333333333333,4,3,0,30,0,0
98422,-100,4,3,0,45,0,0
99921,-133.333333333333,4,3,0,30,0,0
101420,-100,4,3,0,45,0,0
102918,-133.333333333333,4,3,0,30,0,0
104417,-100,4,3,0,45,0,0
105916,-50,4,1,0,45,0,0
107415,-80,4,3,0,50,0,0
117906,-80,4,3,0,30,0,0
118094,-80,4,3,0,40,0,0
118281,-80,4,3,0,50,0,0
118468,-80,4,3,0,60,0,0
118656,-80,4,3,0,70,0,0
118843,-80,4,3,0,75,0,0
119030,-80,4,3,0,80,0,0
119405,-80,4,3,0,50,0,0
131395,-80,4,3,0,50,0,1
143385,-80,4,3,0,50,0,0

[Colours]
Combo1 : 242,69,53
Combo2 : 68,166,166
Combo3 : 242,208,39
Combo4 : 242,148,34

[HitObjects]
156,192,5498,6,0,B|96:245|96:245|36:192,1,160,4|0,0:0|0:0,0:0:0:0:
356,192,5872,2,0,B|416:245|416:245|476:192,1,160,2|0,0:0|0:0,0:0:0:0:
36,108,6247,2,0,B|96:161|96:161|156:108,1,160,,,0:0:0:0:
476,108,6622,2,0,B|416:161|416:161|356:108,1,160,2|2,0:0|0:0,0:0:0:0:
72,328,6996,5,4,0:0:0:0:
356,192,7184,1,0,0:0:0:0:
156,192,7371,1,8,0:0:0:0:
439,328,7558,1,0,0:0:0:0:
256,268,7746,5,4,0:0:0:0:
256,268,7933,1,0,0:0:0:0:
256,268,8027,1,0,0:0:0:0:
256,268,8120,1,2,0:0:0:0:
256,68,8308,1,2,0:0:0:0:
80,136,8495,6,0,B|36:143|10:194|38:240|79:248,1,160,4|0,0:0|0:0,0:0:0:0:
328,80,8870,1,2,0:0:0:0:
84,36,9057,1,2,0:0:0:0:
432,136,9244,6,0,B|476:143|502:194|474:240|433:248,1,160,4|0,0:3|0:1,0:1:0:0:
184,80,9619,1,2,0:0:0:0:
428,36,9806,1,2,0:0:0:0:
400,324,9994,6,4,B|360:300|360:300|348:324|296:304|256:336|256:336|216:304|164:324|152:300|152:300|112:324,1,320,4|4,1:1|1:1,1:1:0:0:
256,188,10556,1,0,0:0:0:0:
112,60,10743,6,4,B|152:84|152:84|164:60|216:80|256:48|256:48|296:80|348:60|360:84|360:84|400:60,1,320,4|4,1:0|1:0,1:0:0:0:
256,188,11305,1,2,0:0:0:0:
256,265,11399,1,2,0:0:0:0:
216,332,11493,5,4,0:0:0:0:
156,52,11680,1,0,0:0:0:0:
100,316,11867,1,2,0:0:0:0:
256,72,12055,1,0,0:0:0:0:
296,332,12242,5,0,0:0:0:0:
256,72,12429,1,0,0:0:0:0:
412,316,12617,1,2,0:0:0:0:
356,52,12804,1,2,0:0:0:0:
296,332,12991,5,4,0:0:0:0:
356,52,13179,1,0,0:0:0:0:
412,316,13366,1,2,0:0:0:0:
256,72,13553,1,0,0:0:0:0:
216,332,13741,5,0,0:0:0:0:
256,72,13928,1,0,0:0:0:0:
100,316,14115,1,2,0:0:0:0:
156,52,14303,1,2,0:0:0:0:
216,332,14490,5,4,0:0:0:0:
216,332,14678,1,0,0:0:0:0:
216,332,14865,1,8,0:0:0:0:
256,72,15052,1,0,0:0:0:0:
296,332,15240,5,4,0:0:0:0:
296,332,15427,1,0,0:0:0:0:
296,332,15614,1,8,0:0:0:0:
356,52,15802,1,8,0:0:0:0:
412,316,15989,5,4,0:0:0:0:
100,316,16176,1,0,0:0:0:0:
412,316,16364,1,4,0:0:0:0:
100,316,16551,1,0,0:0:0:0:
304,144,16738,6,0,L|335:70,1,80,2|2,0:0|0:0,0:0:0:0:
208,144,16926,2,0,L|176:70,1,80,2|2,0:0|0:0,0:0:0:0:
376,172,17113,2,0,L|439:123,1,80,2|2,0:0|0:0,0:0:0:0:
136,172,17300,2,0,L|72:123,1,80,2|2,0:0|0:0,0:0:0:0:
100,316,17488,5,4,0:0:0:0:
256,64,17675,1,0,0:0:0:0:
328,84,17769,1,0,0:0:0:0:
400,104,17862,1,4,0:0:0:0:
100,316,18050,1,0,0:0:0:0:
412,316,18237,5,4,0:0:0:0:
256,64,18424,1,0,0:0:0:0:
184,84,18518,1,0,0:0:0:0:
112,104,18612,1,4,0:0:0:0:
412,316,18799,1,4,0:0:0:0:
128,192,18987,6,0,B|68:245|68:245|8:192,1,160,4|0,0:0|0:0,0:0:0:0:
504,192,19361,2,0,B|444:245|444:245|384:192,1,160,8|0,0:0|0:0,0:0:0:0:
64,72,19736,5,4,0:0:0:0:
332,72,19923,1,2,0:0:0:0:
256,72,20017,1,2,0:0:0:0:
180,72,20111,1,2,0:0:0:0:
448,72,20298,1,4,0:0:0:0:
184,156,20485,5,8,0:0:0:0:
184,156,20673,1,8,0:0:0:0:
184,156,20860,2,0,L|184:236,1,80,,,0:0:0:0:
328,156,21047,5,0,0:0:0:0:
328,156,21235,1,8,0:0:0:0:
328,156,21422,1,8,0:0:0:0:
328,156,21609,2,0,L|328:236,1,80,,,0:0:0:0:
96,192,21797,5,0,0:0:0:0:
416,192,21984,2,4,B|443:141|418:78|364:60,1,160,4|4,1:0|1:0,1:0:0:0:
256,284,22265,1,0,0:0:0:0:
146,60,22359,2,0,B|92:80|69:142|96:192,1,160,4|4,1:0|1:1,1:1:0:0:
256,36,22640,1,8,0:0:0:0:
256,36,22733,1,4,0:0:0:0:
160,228,22921,6,0,L|96:276,1,80,2|2,0:0|0:0,0:0:0:0:
352,228,23108,2,0,L|416:276,1,80,2|2,0:0|0:0,0:0:0:0:
256,364,23296,2,0,L|256:284,1,80,2|2,0:0|0:0,0:0:0:0:
146,60,23483,6,0,B|98:45|46:76|37:132|61:170,1,160,4|0,0:0|0:0,0:0:0:0:
256,108,23764,1,0,0:0:0:0:
459,151,23858,2,0,B|472:109|449:64|405:48|368:59,1,160,4|0,0:0|0:0,0:0:0:0:
196,188,24139,1,0,0:0:0:0:
400,272,24232,6,0,B|360:296|360:296|348:272|296:292|256:260|256:260|216:292|164:272|152:296|152:296|112:272,1,320,4|0,0:0|0:0,0:0:0:0:
316,188,24701,1,2,0:0:0:0:
344,108,24794,2,0,L|424:108,1,80,2|0,0:0|0:0,0:0:0:0:
256,108,24982,5,2,0:0:0:0:
256,108,25169,2,0,L|256:187,1,80,,,0:0:0:0:
68,156,25356,1,8,0:0:0:0:
256,267,25544,6,0,L|256:188,1,80,2|0,0:0|0:0,0:0:0:0:
444,216,25731,1,4,0:0:0:0:
68,216,25918,1,0,0:0:0:0:
444,156,26106,6,0,B|461:114|444:67|405:43|365:44,1,160,8|0,0:0|0:0,0:0:0:0:
144,43,26480,1,4,0:0:0:0:
144,43,26668,2,0,L|200:104,1,80,,,0:0:0:0:
68,156,26855,6,0,B|51:114|68:67|107:43|147:44,1,160,8|0,0:0|0:0,0:0:0:0:
367,43,27230,1,4,0:0:0:0:
367,43,27417,2,0,L|312:104,1,80,,,0:0:0:0:
256,308,27605,1,0,0:0:0:0:
124,192,27792,5,0,0:0:0:0:
388,192,27979,1,2,0:0:0:0:
60,128,28167,1,0,0:0:0:0:
452,128,28354,1,2,0:0:0:0:
256,32,28541,1,0,0:0:0:0:
292,344,28729,5,2,0:0:0:0:
360,340,28822,1,2,0:0:0:0:
320,284,28916,1,2,0:0:0:0:
256,256,29010,1,2,0:0:0:0:
192,284,29103,1,2,0:0:0:0:
152,340,29197,1,2,0:0:0:0:
220,344,29291,1,2,0:0:0:0:
56,56,29478,6,0,L|100:124,1,80,4|0,0:0|0:0,0:0:0:0:
132,56,29665,2,0,L|176:124,1,80,,,0:0:0:0:
208,56,29853,2,0,L|252:124,1,80,,,0:0:0:0:
284,56,30040,2,0,L|328:124,1,80,8|0,0:0|0:0,0:0:0:0:
360,56,30227,2,0,L|404:124,1,80,8|0,0:0|0:0,0:0:0:0:
436,56,30415,2,0,L|480:124,1,80,,,0:0:0:0:
256,340,30602,1,2,0:1:0:0:
456,56,30977,6,0,L|412:124,1,80,4|0,0:0|0:0,0:0:0:0:
380,56,31164,2,0,L|336:124,1,80,,,0:0:0:0:
304,56,31351,2,0,L|260:124,1,80,,,0:0:0:0:
228,56,31539,2,0,L|184:124,1,80,8|0,0:0|0:0,0:0:0:0:
152,56,31726,2,0,L|108:124,1,80,8|0,0:0|0:0,0:0:0:0:
76,56,31914,2,0,L|32:124,1,80,,,0:0:0:0:
256,340,32101,1,2,0:1:0:0:
32,260,32476,6,0,L|76:192,1,80,4|0,0:0|0:0,0:0:0:0:
228,192,32663,2,0,L|184:260,1,80,,,0:0:0:0:
108,260,32850,2,0,L|152:192,1,80,,,0:0:0:0:
304,192,33038,2,0,L|260:260,1,80,4|0,0:0|0:0,0:0:0:0:
184,260,33225,2,0,L|228:192,1,80,8|0,0:0|0:0,0:0:0:0:
304,68,33412,2,0,L|260:136,1,80,,,0:0:0:0:
472,36,33600,1,2,0:1:0:0:
480,260,33974,6,0,L|436:192,1,80,4|0,0:0|0:0,0:0:0:0:
284,192,34162,2,0,L|328:260,1,80,,,0:0:0:0:
404,260,34349,2,0,L|360:192,1,80,,,0:0:0:0:
208,192,34536,2,0,L|252:260,1,80,4|0,0:0|0:0,0:0:0:0:
328,260,34724,6,0,L|284:192,1,80,8|0,0:0|0:0,0:0:0:0:
208,68,34911,2,0,L|252:136,1,80,,,0:0:0:0:
40,36,35098,1,2,0:1:0:0:
60,344,35473,6,0,L|104:276,1,80,4|0,0:0|0:0,0:0:0:0:
256,276,35660,2,0,L|212:344,1,80,,,0:0:0:0:
172,276,35848,2,0,L|216:208,1,80,,,0:0:0:0:
368,208,36035,2,0,L|324:276,1,80,8|0,0:0|0:0,0:0:0:0:
284,208,36223,2,0,L|328:140,1,80,8|0,0:0|0:0,0:0:0:0:
480,140,36410,2,0,L|436:208,1,80,,,0:0:0:0:
76,208,36597,1,2,0:1:0:0:
76,208,36691,1,2,0:1:0:0:
76,208,36972,6,0,L|32:140,1,80,4|0,0:0|0:0,0:0:0:0:
184,140,37159,2,0,L|228:208,1,80,,,0:0:0:0:
188,276,37347,2,0,L|144:208,1,80,,,0:0:0:0:
296,208,37534,2,0,L|340:276,1,80,8|0,0:0|0:0,0:0:0:0:
300,344,37721,2,0,L|256:276,1,80,8|0,0:0|0:0,0:0:0:0:
408,276,37909,2,0,L|452:344,1,80,,,0:0:0:0:
436,208,38096,1,2,0:1:0:0:
436,208,38190,1,2,0:1:0:0:
144,124,38471,6,0,L|100:56,1,80,4|0,0:0|0:0,0:0:0:0:
252,56,38658,2,0,L|296:124,1,80,,,0:0:0:0:
260,192,38845,2,0,L|216:124,1,80,,,0:0:0:0:
368,124,39033,2,0,L|412:192,1,80,4|0,0:0|0:0,0:0:0:0:
328,260,39220,6,0,L|284:328,1,80,8|0,0:0|0:0,0:0:0:0:
252,260,39407,2,0,L|208:328,1,80,,,0:0:0:0:
176,260,39595,2,0,L|132:328,1,80,2|0,0:1|0:0,0:0:0:0:
100,260,39782,2,0,L|56:328,1,80,,,0:0:0:0:
368,124,39969,6,0,L|412:56,1,80,4|0,0:0|0:0,0:0:0:0:
260,56,40157,2,0,L|216:124,1,80,,,0:0:0:0:
252,192,40344,2,0,L|296:124,1,80,,,0:0:0:0:
144,124,40532,2,0,L|100:192,1,80,4|0,0:0|0:0,0:0:0:0:
456,328,40719,6,0,L|412:260,1,80,8|0,0:0|0:0,0:0:0:0:
380,328,40906,2,0,L|336:260,1,80,,,0:0:0:0:
304,328,41094,2,0,L|260:260,1,80,2|2,0:1|0:1,0:0:0:0:
228,328,41281,2,0,L|184:260,1,80,,,0:0:0:0:
387,156,41468,5,4,0:0:0:0:
220,60,41656,1,0,0:0:0:0:
304,108,41749,1,0,0:0:0:0:
387,156,41843,1,2,0:0:0:0:
220,60,42030,1,0,0:0:0:0:
220,60,42218,5,0,0:0:0:0:
124,227,42405,1,0,0:0:0:0:
172,144,42499,1,0,0:0:0:0:
220,60,42592,1,2,0:0:0:0:
124,227,42780,1,2,0:0:0:0:
124,227,42967,5,4,0:0:0:0:
291,323,43154,1,0,0:0:0:0:
208,275,43248,1,0,0:0:0:0:
124,227,43342,1,2,0:0:0:0:
291,323,43529,1,0,0:0:0:0:
291,323,43716,5,0,0:0:0:0:
387,156,43904,1,0,0:0:0:0:
339,240,43997,1,0,0:0:0:0:
291,323,44091,1,2,0:0:0:0:
387,156,44278,1,2,0:0:0:0:
184,92,44466,6,0,B|124:39|124:39|64:92,1,160,4|0,0:0|0:0,0:0:0:0:
428,328,44841,1,2,0:0:0:0:
420,328,45028,1,2,0:0:0:0:
184,92,45215,2,0,B|124:39|124:39|64:92,1,160,4|0,0:0|0:0,0:0:0:0:
412,328,45590,1,2,0:0:0:0:
404,328,45777,1,2,0:0:0:0:
216,192,45965,6,0,B|156:139|156:139|96:192,1,160,4|4,0:1|0:1,0:1:0:0:
256,304,46246,1,0,0:0:0:0:
296,192,46339,2,0,B|356:139|356:139|416:192,1,160,4|4,0:1|0:1,0:1:0:0:
256,304,46620,1,0,0:0:0:0:
196,248,46714,1,6,0:0:0:0:
196,248,46901,6,0,L|164:172,1,80,2|2,0:0|0:0,0:0:0:0:
316,248,47089,2,0,L|348:172,1,80,2|2,0:0|0:0,0:0:0:0:
256,192,47276,2,0,L|256:112,1,80,2|2,0:0|0:0,0:0:0:0:
220,323,47463,5,4,0:0:0:0:
220,323,47651,1,0,0:0:0:0:
172,240,47744,1,0,0:0:0:0:
124,156,47838,1,2,0:0:0:0:
220,323,48025,1,0,0:0:0:0:
124,156,48213,5,0,0:0:0:0:
124,156,48400,1,0,0:0:0:0:
208,108,48494,1,0,0:0:0:0:
291,60,48587,1,2,0:0:0:0:
124,156,48775,1,2,0:0:0:0:
291,60,48962,5,0,0:0:0:0:
291,60,49150,1,0,0:0:0:0:
339,144,49243,1,0,0:0:0:0:
387,227,49337,1,2,0:0:0:0:
291,60,49524,1,0,0:0:0:0:
387,227,49712,5,0,0:0:0:0:
387,227,49899,1,0,0:0:0:0:
304,275,49993,1,0,0:0:0:0:
220,323,50086,1,2,0:0:0:0:
387,227,50274,1,2,0:0:0:0:
84,328,50461,5,4,0:0:0:0:
92,328,50648,1,0,0:0:0:0:
328,92,50836,2,0,B|388:39|388:39|448:92,1,160,8|0,0:0|0:0,0:0:0:0:
100,328,51210,1,4,0:0:0:0:
108,328,51398,1,0,0:0:0:0:
328,92,51585,2,0,B|388:39|388:39|448:92,1,160,8|0,0:0|0:0,0:0:0:0:
216,136,51960,5,6,0:0:0:0:
368,292,52147,1,0,0:0:0:0:
144,292,52334,1,4,0:0:0:0:
296,136,52522,1,0,0:0:0:0:
104,192,52709,5,6,0:0:0:0:
408,192,52896,1,2,0:0:0:0:
88,192,53084,1,6,0:0:0:0:
424,192,53271,1,2,0:0:0:0:
160,88,53459,6,0,B|100:35|100:35|40:88,1,160,4|0,0:0|0:0,0:0:0:0:
256,64,53740,1,0,0:0:0:0:
352,88,53833,2,0,B|412:35|412:35|472:88,1,160,,,0:0:0:0:
220,148,54208,6,0,B|160:201|160:201|100:148,1,160,4|0,0:0|0:0,0:0:0:0:
256,248,54489,1,0,0:0:0:0:
292,148,54583,2,0,B|352:201|352:201|412:148,1,160,4|0,0:0|0:0,0:0:0:0:
256,64,54864,1,0,0:0:0:0:
164,44,54957,5,4,0:0:0:0:
164,44,55145,2,0,L|92:104,1,80,,,0:0:0:0:
348,44,55332,1,8,0:0:0:0:
160,192,55519,1,0,0:0:0:0:
348,44,55707,5,0,0:0:0:0:
348,44,55894,2,0,L|420:104,1,80,,,0:0:0:0:
164,44,56081,1,8,0:0:0:0:
352,192,56269,1,8,0:0:0:0:
160,192,56456,6,0,B|153:236|102:262|56:234|48:193,1,160,2|0,0:0|0:0,0:0:0:0:
410,95,56831,1,8,0:0:0:0:
333,96,56924,1,0,0:0:0:0:
256,96,57018,1,0,0:0:0:0:
463,192,57205,6,0,B|456:235|406:261|360:234|352:193,1,160,,,0:0:0:0:
102,95,57580,1,8,0:0:0:0:
179,96,57674,1,0,0:0:0:0:
256,96,57768,1,8,0:0:0:0:
256,96,57955,5,4,0:1:0:0:
256,96,58142,1,8,0:0:0:0:
179,96,58236,1,0,0:0:0:0:
333,96,58330,1,4,0:1:0:0:
102,95,58517,1,0,0:0:0:0:
410,95,58704,6,0,L|410:334,1,240,4|0,0:1|0:0,0:0:0:0:
102,95,59079,2,0,L|102:334,1,240,4|0,0:1|0:0,0:0:0:0:
410,95,59454,5,4,0:0:0:0:
410,95,59641,1,0,0:0:0:0:
360,188,59735,1,0,0:0:0:0:
410,289,59828,1,8,0:0:0:0:
102,289,60016,1,0,0:0:0:0:
410,95,60203,6,0,B|304:112|304:112|256:76|208:112|208:112|102:95,1,320,4|4,0:0|0:0,0:0:0:0:
410,289,60765,1,0,0:0:0:0:
102,95,60952,5,4,0:0:0:0:
102,289,61140,1,0,0:0:0:0:
152,188,61233,1,0,0:0:0:0:
102,95,61327,1,8,0:0:0:0:
410,289,61514,5,0,0:0:0:0:
152,188,61702,1,4,0:0:0:0:
410,95,61889,5,0,0:0:0:0:
360,188,61983,1,0,0:0:0:0:
410,289,62077,1,8,0:0:0:0:
410,95,62264,1,8,0:0:0:0:
152,188,62451,5,10,0:0:0:0:
360,188,62639,1,0,0:0:0:0:
152,188,62826,1,4,0:0:0:0:
472,188,63013,1,0,0:0:0:0:
152,188,63201,1,2,0:0:0:0:
472,188,63388,5,0,0:0:0:0:
472,188,63482,1,0,0:0:0:0:
472,188,63575,1,8,0:0:0:0:
256,348,63763,1,0,0:0:0:0:
40,196,63950,5,4,0:0:0:0:
332,52,64137,1,0,0:0:0:0:
180,52,64325,1,4,0:0:0:0:
472,196,64512,1,0,0:0:0:0:
292,344,64699,5,2,0:0:0:0:
220,344,64793,1,2,0:0:0:0:
152,340,64887,1,2,0:0:0:0:
192,284,64980,1,2,0:0:0:0:
256,256,65074,1,2,0:0:0:0:
320,284,65168,1,2,0:0:0:0:
360,340,65261,1,2,0:0:0:0:
204,128,65449,6,0,L|116:128,1,80,6|0,0:1|0:0,0:0:0:0:
308,128,65636,2,0,L|396:128,1,80,,,0:0:0:0:
180,192,65823,2,0,L|92:192,1,80,,,0:0:0:0:
332,192,66011,2,0,L|420:192,1,80,2|0,0:1|0:1,0:1:0:0:
204,256,66198,6,0,L|116:256,1,80,2|0,0:1|0:1,0:1:0:0:
308,256,66386,2,0,L|396:256,1,80,,,0:0:0:0:
180,192,66573,2,0,L|92:192,1,80,2|0,0:1|0:1,0:1:0:0:
332,192,66760,2,0,L|420:192,1,80,,,0:0:0:0:
204,128,66948,6,0,L|116:128,1,80,2|0,0:1|0:1,0:1:0:0:
308,128,67135,2,0,L|396:128,1,80,,,0:0:0:0:
180,192,67322,2,0,L|92:192,1,80,,,0:0:0:0:
332,192,67510,2,0,L|420:192,1,80,2|0,0:1|0:1,0:1:0:0:
204,256,67697,6,0,L|116:256,1,80,2|0,0:1|0:1,0:1:0:0:
308,256,67884,2,0,L|396:256,1,80,,,0:0:0:0:
180,192,68072,2,0,L|92:192,1,80,2|0,0:1|0:1,0:1:0:0:
332,192,68259,2,0,L|420:192,1,80,,,0:0:0:0:
372,120,68446,6,0,L|456:120,1,80,2|0,0:1|0:1,0:1:0:0:
140,120,68634,2,0,L|56:120,1,80,,,0:0:0:0:
412,192,68821,2,0,L|328:192,1,80,,,0:0:0:0:
100,192,69008,2,0,L|184:192,1,80,2|0,0:1|0:1,0:1:0:0:
372,264,69196,6,0,L|456:264,1,80,2|0,0:1|0:0,0:0:0:0:
140,264,69383,2,0,L|56:264,1,80,,,0:0:0:0:
412,192,69570,2,0,L|328:192,1,80,,,0:0:0:0:
100,192,69758,2,0,L|184:192,1,80,,,0:0:0:0:
384,120,69945,6,0,L|468:120,1,80,2|0,0:1|0:0,0:0:0:0:
296,56,70132,2,0,L|380:56,1,80,,,0:0:0:0:
136,56,70320,2,0,L|216:56,1,80,,,0:0:0:0:
48,120,70507,2,0,L|128:120,1,80,2|0,0:1|0:1,0:1:0:0:
128,264,70695,6,0,L|44:264,1,80,2|0,0:1|0:0,0:0:0:0:
216,328,70882,2,0,L|132:328,1,80,,,0:0:0:0:
376,328,71069,2,0,L|296:328,1,80,,,0:0:0:0:
464,264,71257,2,0,L|384:264,1,80,,,0:0:0:0:
96,324,71444,6,0,L|72:248,1,80,6|0,0:1|0:1,0:1:0:0:
80,60,71631,2,0,L|104:136,1,80,,,0:0:0:0:
114,324,71819,2,0,L|90:248,1,80,,,0:0:0:0:
98,60,72006,2,0,L|122:136,1,80,2|0,0:1|0:0,0:0:0:0:
114,324,72193,2,0,L|90:248,1,80,2|0,0:1|0:0,0:0:0:0:
98,60,72381,2,0,L|122:136,1,80,,,0:0:0:0:
132,324,72568,2,0,L|108:248,1,80,2|0,0:1|0:0,0:0:0:0:
116,60,72755,2,0,L|140:136,1,80,,,0:0:0:0:
416,324,72943,6,0,L|440:248,1,80,2|0,0:1|0:0,0:0:0:0:
432,60,73130,2,0,L|408:136,1,80,,,0:0:0:0:
398,324,73317,2,0,L|422:248,1,80,,,0:0:0:0:
414,60,73505,2,0,L|390:136,1,80,2|0,0:1|0:0,0:0:0:0:
398,324,73692,2,0,L|422:248,1,80,2|0,0:1|0:0,0:0:0:0:
414,60,73879,2,0,L|390:136,1,80,,,0:0:0:0:
380,324,74067,2,0,L|404:248,1,80,2|0,0:1|0:0,0:0:0:0:
396,60,74254,2,0,L|372:136,1,80,,,0:0:0:0:
208,36,74441,6,0,L|128:36,1,80,2|0,0:1|0:0,0:0:0:0:
176,100,74629,2,0,L|96:100,1,80,,,0:0:0:0:
208,164,74816,2,0,L|128:164,1,80,,,0:0:0:0:
176,228,75004,2,0,L|96:228,1,80,2|0,0:1|0:0,0:0:0:0:
304,348,75191,6,0,L|384:348,1,80,2|0,0:1|0:0,0:0:0:0:
336,284,75378,2,0,L|416:284,1,80,,,0:0:0:0:
304,220,75566,2,0,L|384:220,1,80,,,0:0:0:0:
336,156,75753,2,0,L|416:156,1,80,,,0:0:0:0:
208,348,75940,6,0,L|128:348,1,80,2|0,0:1|0:0,0:0:0:0:
208,220,76128,2,0,L|128:220,1,80,,,0:0:0:0:
176,284,76315,2,0,L|96:284,1,80,,,0:0:0:0:
176,156,76502,2,0,L|96:156,1,80,6|0,0:1|0:0,0:0:0:0:
304,36,76690,6,0,L|384:36,1,80,2|0,0:1|0:0,0:0:0:0:
304,164,76877,2,0,L|384:164,1,80,,,0:0:0:0:
336,100,77064,2,0,L|416:100,1,80,4|0,0:1|0:0,0:0:0:0:
336,228,77252,2,0,L|416:228,1,80,,,0:0:0:0:
256,192,77439,12,0,78750,0:0:0:0:
112,56,78938,5,2,0:0:0:0:
184,56,79032,1,0,0:0:0:0:
256,56,79125,1,2,0:0:0:0:
328,56,79219,1,0,0:0:0:0:
400,56,79313,1,2,0:0:0:0:
400,328,79687,5,2,0:0:0:0:
328,328,79781,1,0,0:0:0:0:
256,328,79875,1,2,0:0:0:0:
184,328,79968,1,0,0:0:0:0:
112,328,80062,1,2,0:0:0:0:
256,192,80437,12,0,81748,0:0:0:0:
112,56,81935,5,2,0:0:0:0:
184,104,82029,1,2,0:0:0:0:
256,56,82123,1,2,0:0:0:0:
328,104,82216,1,2,0:0:0:0:
400,56,82310,1,6,0:0:0:0:
400,328,82685,5,2,0:0:0:0:
328,280,82778,1,2,0:0:0:0:
256,328,82872,1,2,0:0:0:0:
184,280,82966,1,2,0:0:0:0:
112,328,83059,1,6,0:0:0:0:
256,192,83434,12,0,84746,0:0:0:0:
120,316,85120,5,4,0:0:0:0:
312,228,85308,1,2,0:0:0:0:
256,40,85495,1,0,0:0:0:0:
200,228,85682,1,2,0:0:0:0:
392,316,85870,1,0,0:0:0:0:
356,116,86057,1,2,0:0:0:0:
256,336,86244,1,0,0:0:0:0:
156,116,86432,1,2,0:0:0:0:
48,292,86619,1,2,0:0:0:0:
256,192,86806,1,6,0:0:0:0:
464,292,86994,1,6,0:0:0:0:
256,40,87556,5,0,0:0:0:0:
76,312,87743,6,0,L|136:312,1,60.0000022888184,6|0,0:0|0:0,0:0:0:0:
256,312,87931,2,0,L|196:312,1,60.0000022888184,,,0:0:0:0:
136,252,88118,2,0,L|196:252,1,60.0000022888184,,,0:0:0:0:
316,252,88305,2,0,L|256:252,1,60.0000022888184,,,0:0:0:0:
256,312,88493,6,0,L|316:312,1,60.0000022888184,2|0,0:0|0:0,0:0:0:0:
436,312,88680,2,0,L|376:312,1,60.0000022888184,,,0:0:0:0:
196,252,88867,2,0,L|256:252,1,60.0000022888184,,,0:0:0:0:
376,252,89055,2,0,L|316:252,1,60.0000022888184,,,0:0:0:0:
256,312,89242,1,4,0:0:0:0:
204,48,89429,6,2,B|204:116|152:116|152:116|152:192|84:192|84:192|84:116|32:116,1,320,2|2,1:0|1:0,1:0:0:0:
376,312,89991,1,0,0:0:0:0:
308,48,90179,2,2,B|308:116|360:116|360:116|360:192|428:192|428:192|428:116|480:116,1,320,2|2,1:0|1:0,1:0:0:0:
136,312,90741,1,0,0:0:0:0:
166,48,90928,6,0,L|226:48,1,60.0000022888184,6|0,0:0|0:0,0:0:0:0:
346,48,91115,2,0,L|286:48,1,60.0000022888184,,,0:0:0:0:
166,112,91303,2,0,L|226:112,1,60.0000022888184,,,0:0:0:0:
346,112,91490,2,0,L|286:112,1,60.0000022888184,,,0:0:0:0:
166,176,91677,6,0,L|106:176,1,60.0000022888184,2|0,0:0|0:0,0:0:0:0:
346,176,91865,2,0,L|406:176,1,60.0000022888184,,,0:0:0:0:
166,240,92052,2,0,L|106:240,1,60.0000022888184,8|0,0:0|0:0,0:0:0:0:
346,240,92240,2,0,L|406:240,1,60.0000022888184,8|0,0:0|0:0,0:0:0:0:
180,308,92427,6,2,B|116:308|108:244|108:244|64:244|56:188|56:188|100:188|108:132|108:132|152:132,1,320,2|2,1:0|1:0,1:0:0:0:
436,72,92989,1,0,0:0:0:0:
332,308,93176,2,2,B|396:308|404:244|404:244|448:244|456:188|456:188|412:188|404:132|404:132|360:132,1,320,2|2,1:0|1:0,1:0:0:0:
76,72,93738,1,0,0:0:0:0:
332,308,93926,5,4,0:0:0:0:
332,308,94113,2,0,L|392:308,1,60.0000022888184,,,0:0:0:0:
292,244,94300,1,2,0:0:0:0:
180,308,94488,2,0,L|120:308,1,60.0000022888184,,,0:0:0:0:
220,244,94675,1,2,0:0:0:0:
332,308,94862,2,0,L|392:308,1,60.0000022888184,,,0:0:0:0:
292,244,95050,1,2,0:0:0:0:
180,308,95237,2,0,L|120:308,1,60.0000022888184,,,0:0:0:0:
220,244,95424,5,4,0:0:0:0:
332,76,95612,2,0,L|424:76,1,80,,,0:0:0:0:
292,244,95799,1,2,0:0:0:0:
180,76,95986,2,0,L|88:76,1,80,,,0:0:0:0:
220,244,96174,1,2,0:0:0:0:
332,76,96361,2,0,L|424:76,1,80,,,0:0:0:0:
220,244,96549,1,2,0:0:0:0:
180,76,96736,2,0,L|88:76,1,80,,,0:0:0:0:
188,128,96923,5,4,0:0:0:0:
228,168,97017,1,0,0:0:0:0:
284,168,97111,1,0,0:0:0:0:
324,128,97204,1,0,0:0:0:0:
364,164,97298,1,2,0:0:0:0:
328,204,97392,1,0,0:0:0:0:
292,244,97485,1,2,0:0:0:0:
256,284,97579,1,0,0:0:0:0:
220,244,97673,1,2,0:0:0:0:
184,204,97766,1,0,0:0:0:0:
148,164,97860,1,2,0:0:0:0:
256,288,98047,6,0,L|256:348,1,60.0000022888184,,,0:0:0:0:
256,96,98235,2,0,L|256:36,1,60.0000022888184,,,0:0:0:0:
172,72,98422,5,6,0:0:0:0:
132,72,98516,1,0,0:0:0:0:
172,72,98609,1,2,0:0:0:0:
132,72,98703,1,0,0:0:0:0:
172,72,98797,1,8,0:0:0:0:
420,340,98984,1,8,0:0:0:0:
340,72,99171,5,2,0:0:0:0:
380,72,99265,1,0,0:0:0:0:
340,72,99359,1,2,0:0:0:0:
380,72,99452,1,0,0:0:0:0:
340,72,99546,1,4,0:0:0:0:
92,340,99733,1,4,0:0:0:0:
292,140,99921,5,4,0:0:0:0:
332,192,100014,1,0,0:0:0:0:
316,256,100108,1,0,0:0:0:0:
356,308,100202,1,0,0:0:0:0:
296,336,100295,1,8,0:0:0:0:
256,288,100389,1,0,0:0:0:0:
216,336,100483,1,0,0:0:0:0:
156,308,100576,1,0,0:0:0:0:
196,256,100670,1,8,0:0:0:0:
180,192,100764,1,0,0:0:0:0:
220,140,100858,1,8,0:0:0:0:
256,84,100951,1,0,0:0:0:0:
256,84,101045,1,4,0:0:0:0:
256,288,101232,6,0,L|256:348,1,60.0000022888184,,,0:0:0:0:
408,192,101420,5,2,0:0:0:0:
368,192,101513,1,0,0:0:0:0:
408,192,101607,1,2,0:0:0:0:
368,192,101701,1,0,0:0:0:0:
408,192,101794,1,8,0:0:0:0:
464,40,101982,1,8,0:0:0:0:
144,192,102169,5,2,0:0:0:0:
104,192,102263,1,0,0:0:0:0:
144,192,102356,1,2,0:0:0:0:
104,192,102450,1,0,0:0:0:0:
144,192,102544,1,4,0:0:0:0:
48,40,102731,1,4,0:0:0:0:
256,48,102918,5,4,0:0:0:0:
256,192,103106,2,0,L|256:256,1,60.0000022888184,,,0:0:0:0:
144,192,103293,1,6,0:0:0:0:
256,192,103480,2,0,L|256:128,1,60.0000022888184,,,0:0:0:0:
368,192,103668,1,2,0:0:0:0:
56,192,103855,5,4,0:0:0:0:
456,192,104042,1,6,0:0:0:0:
256,192,104417,12,4,105541,1:1:0:0:
256,28,105916,5,6,0:0:0:0:
176,312,106103,2,0,L|336:312,1,160,,,0:0:0:0:
96,264,106291,1,0,0:0:0:0:
416,264,106478,1,0,0:0:0:0:
172,120,106665,6,0,B|151:197|222:270|315:250|353:184|341:125,1,320,,,0:0:0:0:
256,28,107040,2,6,L|256:348,1,320,6|4,0:0|0:0,0:0:0:0:
484,119,107415,6,0,B|412:50|412:50|340:119,1,200,4|0,0:0|0:0,0:0:0:0:
212,192,107696,1,0,0:0:0:0:
28,119,107789,2,0,B|100:50|100:50|172:119,1,200,4|0,0:0|0:0,0:0:0:0:
300,192,108070,1,0,0:0:0:0:
300,192,108164,6,0,B|372:261|372:261|444:192,1,200,4|0,0:0|0:0,0:0:0:0:
256,28,108445,1,0,0:0:0:0:
212,192,108539,2,0,B|140:261|140:261|68:192,1,200,8|8,0:0|0:0,0:0:0:0:
256,192,108820,1,0,0:0:0:0:
328,336,108913,6,0,B|256:267|256:267|184:336,1,200,4|0,0:0|0:0,0:0:0:0:
256,192,109194,1,0,0:0:0:0:
184,48,109288,2,0,B|256:117|256:117|328:48,1,200,8|0,0:0|0:0,0:0:0:0:
112,120,109663,6,0,B|181:192|181:192|112:264,1,200,4|0,0:0|0:0,0:0:0:0:
256,192,109944,1,0,0:0:0:0:
400,264,110038,2,0,B|331:192|331:192|400:120,1,200,8|8,0:0|0:0,0:0:0:0:
48,192,110412,5,6,0:0:0:0:
256,40,110600,1,2,0:0:0:0:
48,192,110787,2,0,L|148:192,1,100,,,0:0:0:0:
464,192,110974,5,0,0:0:0:0:
256,344,111162,1,2,0:0:0:0:
256,40,111349,1,2,0:0:0:0:
464,192,111536,2,0,L|364:192,1,100,,,0:0:0:0:
256,344,111724,1,0,0:0:0:0:
100,268,111911,6,0,B|47:251|22:189|51:134|98:117,1,200,4|0,0:0|0:0,0:0:0:0:
204,192,112192,1,0,0:0:0:0:
412,116,112286,2,0,B|464:134|489:195|460:250|414:267,1,200,8|0,0:0|0:0,0:0:0:0:
308,192,112567,1,0,0:0:0:0:
256,60,112660,5,4,0:0:0:0:
216,292,112848,2,0,L|202:185,1,100,,,0:0:0:0:
296,292,113035,2,0,L|310:185,1,100,,,0:0:0:0:
256,160,113222,2,0,L|256:52,1,100,,,0:0:0:0:
88,76,113410,5,4,0:0:0:0:
472,128,113597,1,0,0:0:0:0:
40,128,113785,1,8,0:0:0:0:
424,76,113972,1,0,0:0:0:0:
108,144,114159,5,4,0:0:0:0:
456,196,114347,1,0,0:0:0:0:
56,196,114534,1,8,0:0:0:0:
404,144,114721,1,8,0:0:0:0:
316,320,114909,6,0,B|321:270|274:231|220:243|194:281|196:318,1,200,4|0,0:0|0:0,0:0:0:0:
72,288,115190,1,0,0:0:0:0:
148,228,115283,2,0,B|201:211|226:149|197:94|150:77,2,200,4|0|8,0:0|0:0|0:0,0:0:0:0:
363,76,115845,1,0,0:0:0:0:
363,76,116033,6,0,B|311:94|286:156|315:210|362:227,1,200,4|0,0:0|0:0,0:0:0:0:
440,288,116314,1,0,0:0:0:0:
256,308,116407,2,0,B|189:334|116:306|81:249,1,200,4|0,0:0|0:0,0:0:0:0:
400,96,116782,5,0,0:0:0:0:
112,96,116969,1,0,0:0:0:0:
256,192,117063,1,0,0:0:0:0:
256,308,117157,2,0,B|323:334|396:306|431:249,2,200,4|0|4,0:0|0:0|0:0,0:0:0:0:
176,44,117719,5,0,0:0:0:0:
376,188,117906,1,4,0:0:0:0:
136,188,118094,1,0,0:0:0:0:
336,44,118281,1,4,0:0:0:0:
256,308,118468,5,0,0:0:0:0:
292,32,118656,1,4,0:0:0:0:
136,188,118843,1,8,0:0:0:0:
376,188,119030,1,4,0:0:0:0:
220,32,119218,1,8,0:0:0:0:
160,324,119405,6,0,B|223:358|294:355|351:324,1,200,4|0,0:0|0:0,0:0:0:0:
296,192,119686,1,0,0:0:0:0:
352,60,119780,2,0,B|289:26|218:29|161:60,1,200,4|0,0:0|0:0,0:0:0:0:
216,192,120061,1,0,0:0:0:0:
96,288,120154,6,0,B|112:332|168:348|168:348|204:316|204:316|256:340|308:316|308:316|344:348|344:348|400:332|416:288,1,400,6|6,0:0|0:0,0:0:0:0:
352,60,120716,5,0,0:0:0:0:
256,264,120904,1,4,0:0:0:0:
160,60,121091,1,0,0:0:0:0:
352,60,121278,1,8,0:0:0:0:
256,264,121466,1,0,0:0:0:0:
160,60,121653,1,4,0:0:0:0:
304,320,121840,6,0,L|332:212,1,100,,,0:0:0:0:
183,224,122028,2,0,L|208:320,1,100,8|0,0:0|0:0,0:0:0:0:
207,63,122215,1,8,0:0:0:0:
207,63,122403,6,0,B|175:78|140:77|111:64,1,100,4|0,0:0|0:0,0:0:0:0:
456,192,122590,1,0,0:0:0:0:
456,192,122777,6,0,B|424:207|388:206|359:192,1,100,4|0,0:0|0:0,0:0:0:0:
56,192,122965,1,0,0:0:0:0:
256,348,123152,5,8,0:0:0:0:
256,348,123339,1,0,0:0:0:0:
56,192,123527,2,0,B|88:207|123:206|152:192,1,100,8|0,0:0|0:0,0:0:0:0:
304,63,123714,1,0,0:0:0:0:
304,63,123901,6,0,B|336:78|371:77|401:64,1,100,4|0,0:0|0:0,0:0:0:0:
207,63,124089,2,0,B|175:78|140:77|111:64,1,100,0|8,0:0|0:0,0:0:0:0:
448,128,124276,2,0,B|416:143|380:142|351:128,1,100,8|0,0:0|0:0,0:0:0:0:
64,128,124463,2,0,B|96:143|131:142|160:128,1,100,4|0,0:0|0:0,0:0:0:0:
256,152,124651,1,8,0:0:0:0:
304,332,124838,6,0,B|336:317|371:318|401:331,1,100,2|2,0:0|0:0,0:0:0:0:
207,332,125025,2,0,B|175:317|140:318|111:331,1,100,2|2,0:0|0:0,0:0:0:0:
304,264,125213,2,0,B|272:279|236:278|207:264,1,100,2|2,0:0|0:0,0:0:0:0:
64,128,125400,5,4,0:0:0:0:
256,128,125587,1,0,0:0:0:0:
160,116,125681,1,0,0:0:0:0:
64,128,125775,1,4,0:0:0:0:
448,128,125962,5,0,0:0:0:0:
351,116,126056,1,0,0:0:0:0:
256,128,126149,1,8,0:0:0:0:
148,324,126337,6,0,L|148:224,1,100,0|8,0:0|0:0,0:0:0:0:
364,224,126524,2,0,L|364:324,1,100,8|0,0:0|0:0,0:0:0:0:
256,276,126712,1,4,0:0:0:0:
256,276,126805,1,0,0:0:0:0:
68,192,126899,6,0,L|68:92,1,100,4|0,0:0|0:0,0:0:0:0:
444,92,127086,2,0,L|444:192,1,100,0|8,0:0|0:0,0:0:0:0:
148,224,127274,2,0,L|148:124,1,100,8|0,0:0|0:0,0:0:0:0:
364,124,127461,2,0,L|364:224,1,100,4|0,0:0|0:0,0:0:0:0:
256,176,127648,5,8,0:0:0:0:
256,176,127836,2,0,L|256:72,1,100,,,0:0:0:0:
148,224,128023,1,4,0:0:0:0:
148,224,128210,6,0,L|148:120,1,100,,,0:0:0:0:
40,272,128398,1,4,0:0:0:0:
256,176,128585,2,0,L|256:72,1,100,,,0:0:0:0:
364,224,128772,1,8,0:0:0:0:
364,224,128960,6,0,L|364:120,1,100,,,0:0:0:0:
472,272,129147,1,4,0:0:0:0:
256,308,129334,5,0,0:0:0:0:
256,308,129428,1,0,0:0:0:0:
256,308,129522,1,4,0:0:0:0:
256,76,129709,1,0,0:0:0:0:
76,272,129896,5,6,0:0:0:0:
376,64,130084,1,0,0:0:0:0:
136,64,130271,1,6,0:0:0:0:
436,272,130458,1,0,0:0:0:0:
152,340,130646,5,2,0:0:0:0:
192,284,130739,1,2,0:0:0:0:
256,256,130833,1,2,0:0:0:0:
320,284,130927,1,2,0:0:0:0:
360,340,131021,1,2,0:0:0:0:
292,344,131114,1,2,0:0:0:0:
220,344,131208,1,2,0:0:0:0:
32,88,131395,5,6,0:1:0:0:
64,144,131489,1,0,0:0:0:0:
96,200,131583,1,0,0:0:0:0:
128,256,131676,1,0,0:0:0:0:
96,200,131770,5,0,0:0:0:0:
128,144,131864,1,0,0:0:0:0:
160,88,131957,1,2,0:1:0:0:
192,32,132051,1,0,0:0:0:0:
160,88,132145,5,2,0:1:0:0:
192,144,132238,1,0,0:0:0:0:
224,200,132332,1,0,0:0:0:0:
256,256,132426,1,0,0:0:0:0:
288,200,132519,1,2,0:1:0:0:
320,144,132613,1,0,0:0:0:0:
352,88,132707,1,0,0:0:0:0:
480,88,132894,5,6,0:1:0:0:
448,144,132988,1,0,0:0:0:0:
416,200,133081,1,0,0:0:0:0:
384,256,133175,1,0,0:0:0:0:
416,200,133269,5,0,0:0:0:0:
384,144,133362,1,0,0:0:0:0:
352,88,133456,1,2,0:1:0:0:
320,32,133550,1,0,0:0:0:0:
352,88,133643,5,2,0:1:0:0:
320,144,133737,1,0,0:0:0:0:
288,200,133831,1,0,0:0:0:0:
256,256,133924,1,0,0:0:0:0:
224,200,134018,1,2,0:1:0:0:
192,144,134112,1,0,0:0:0:0:
160,88,134205,1,0,0:0:0:0:
224,200,134393,6,0,L|124:200,1,100,2|0,0:1|0:0,0:0:0:0:
288,200,134580,2,0,L|388:200,1,100,,,0:0:0:0:
192,144,134767,2,0,L|92:144,1,100,,,0:0:0:0:
320,144,134955,2,0,L|420:144,1,100,2|0,0:1|0:0,0:0:0:0:
160,88,135142,2,0,L|60:88,1,100,2|0,0:1|0:0,0:0:0:0:
352,88,135330,2,0,L|452:88,1,100,,,0:0:0:0:
92,144,135517,2,0,L|192:144,1,100,2|0,0:1|0:0,0:0:0:0:
420,144,135704,2,0,L|320:144,1,100,,,0:0:0:0:
124,200,135892,6,0,L|224:200,1,100,2|0,0:1|0:0,0:0:0:0:
388,200,136079,2,0,L|288:200,1,100,,,0:0:0:0:
92,256,136266,2,0,L|192:256,1,100,,,0:0:0:0:
420,256,136454,2,0,L|320:256,1,100,2|0,0:1|0:0,0:0:0:0:
60,312,136641,2,0,L|160:312,1,100,2|0,0:1|0:0,0:0:0:0:
452,312,136828,2,0,L|352:312,1,100,,,0:0:0:0:
192,256,137016,2,0,L|92:256,1,100,2|0,0:1|0:0,0:0:0:0:
320,256,137203,2,0,L|420:256,1,100,,,0:0:0:0:
396,192,137390,5,6,0:1:0:0:
360,136,137484,1,0,0:0:0:0:
324,192,137578,1,0,0:0:0:0:
396,192,137671,1,0,0:0:0:0:
360,136,137765,5,0,0:0:0:0:
324,80,137859,1,0,0:0:0:0:
288,136,137952,1,2,0:1:0:0:
360,136,138046,1,0,0:0:0:0:
432,136,138140,5,2,0:1:0:0:
396,80,138233,1,0,0:0:0:0:
324,80,138327,1,0,0:0:0:0:
288,136,138421,1,0,0:0:0:0:
324,192,138514,1,2,0:1:0:0:
116,192,138889,5,6,0:1:0:0:
152,136,138983,1,0,0:0:0:0:
188,192,139076,1,0,0:0:0:0:
116,192,139170,1,0,0:0:0:0:
152,136,139264,5,0,0:0:0:0:
188,80,139357,1,0,0:0:0:0:
224,136,139451,1,2,0:1:0:0:
152,136,139545,1,0,0:0:0:0:
80,136,139639,5,2,0:1:0:0:
116,80,139732,1,0,0:0:0:0:
188,80,139826,1,0,0:0:0:0:
224,136,139920,1,0,0:0:0:0:
188,192,140013,1,2,0:1:0:0:
320,328,140388,6,0,L|380:248,1,100,2|0,0:1|0:0,0:0:0:0:
191,56,140575,2,0,L|131:136,1,100,,,0:0:0:0:
340,328,140763,2,0,L|400:248,1,100,,,0:0:0:0:
172,56,140950,2,0,L|112:136,1,100,2|0,0:1|0:0,0:0:0:0:
356,328,141137,2,0,L|416:248,1,100,2|0,0:1|0:0,0:0:0:0:
156,56,141325,2,0,L|96:136,1,100,,,0:0:0:0:
256,192,141512,1,2,0:0:0:0:
132,248,141606,1,0,0:0:0:0:
380,248,141699,1,0,0:0:0:0:
320,56,141887,6,0,L|380:136,1,100,2|0,0:1|0:0,0:0:0:0:
192,328,142074,2,0,L|132:248,1,100,,,0:0:0:0:
340,56,142261,2,0,L|400:136,1,100,,,0:0:0:0:
172,328,142449,2,0,L|112:248,1,100,2|0,0:1|0:0,0:0:0:0:
356,56,142636,2,0,L|416:136,1,100,2|0,0:1|0:0,0:0:0:0:
156,328,142823,2,0,L|96:248,1,100,,,0:0:0:0:
256,192,143011,1,2,0:0:0:0:
380,136,143104,1,0,0:0:0:0:
132,136,143198,1,0,0:0:0:0:
256,192,143385,12,0,144697,0:0:0:0:
112,56,144884,5,2,0:0:0:0:
184,128,144978,1,2,0:0:0:0:
256,56,145072,1,2,0:0:0:0:
328,128,145165,1,2,0:0:0:0:
400,56,145259,1,6,0:0:0:0:
400,328,145634,5,2,0:0:0:0:
328,256,145727,1,2,0:0:0:0:
256,328,145821,1,2,0:0:0:0:
184,256,145915,1,2,0:0:0:0:
112,328,146008,1,6,0:0:0:0:
256,192,146383,12,0,147694,0:0:0:0:
112,56,147882,5,2,0:0:0:0:
184,144,147975,1,2,0:0:0:0:
256,56,148069,1,2,0:0:0:0:
328,144,148163,1,2,0:0:0:0:
400,56,148257,1,6,0:0:0:0:
400,328,148631,5,2,0:0:0:0:
328,240,148725,1,2,0:0:0:0:
256,328,148819,1,2,0:0:0:0:
184,240,148912,1,2,0:0:0:0:
112,328,149006,1,6,0:0:0:0:
256,192,149381,12,0,150692,0:0:0:0:
180,52,151067,5,0,0:0:0:0:
456,192,151254,1,0,0:0:0:0:
56,192,151441,1,0,0:0:0:0:
332,52,151629,1,0,0:0:0:0:
256,336,151816,1,0,0:0:0:0:
112,116,152003,1,0,0:0:0:0:
400,116,152191,1,0,0:0:0:0:
112,268,152378,5,0,0:0:0:0:
256,48,152566,1,0,0:0:0:0:
400,268,152753,1,0,0:0:0:0:
112,268,152940,1,0,0:0:0:0:
400,268,153502,5,6,1:0:0:0:
